Official BS.Player forums

Official BS.Player forums (http://forum.bsplayer.com/)
-   BSPlayer for Android (http://forum.bsplayer.com/bsplayer-android/)
-   -   BC Player free issue with 59 fps files (http://forum.bsplayer.com/bsplayer-android/20630-bc-player-free-issue-59-fps-files.html)

gonijn 14th December 2012 11:35 PM

BC Player free issue with 59 fps files
 
It seems BS player cannot play 59 fps files (while MXPlayer has no problems). The file plays, but the audio is way off (5+ secs delay).

File details:
General
Format : Matroska
Format version : Version 2
File size : 1.27 GiB
Duration : 41mn 24s
Overall bit rate : 4 383 Kbps
Encoded date : UTC 2012-12-13 07:25:21
Writing application : mkvmerge v3.0.0 ('Hang up your Hang-Ups') built on Apr 19 2010 11:58:49
Writing library : libebml v0.7.7 + libmatroska v0.8.1

Video
ID : 1
Format : AVC
Format/Info : Advanced Video Codec
Format profile : High@L4.1
Format settings, CABAC : Yes
Format settings, ReFrames : 5 frames
Codec ID : V_MPEG4/ISO/AVC
Duration : 41mn 24s
Bit rate : 3 912 Kbps
Width : 1 280 pixels
Height : 720 pixels
Display aspect ratio : 16:9
Frame rate : 59.940 fps
Color space : YUV
Chroma subsampling : 4:2:0
Bit depth : 8 bits
Scan type : Progressive
Bits/(Pixel*Frame) : 0.071
Stream size : 1.13 GiB (89%)
Writing library : x264 core 129 r2230 1cffe9f
Encoding settings : cabac=1 / ref=5 / deblock=1:0:0 / analyse=0x3:0x113 / me=umh / subme=8 / psy=1 / psy_rd=1.00:0.00 / mixed_ref=1 / me_range=16 / chroma_me=1 / trellis=1 / 8x8dct=1 / cqm=0 / deadzone=21,11 / fast_pskip=0 / chroma_qp_offset=-2 / threads=16 / lookahead_threads=2 / sliced_threads=0 / nr=0 / decimate=1 / interlaced=0 / bluray_compat=0 / constrained_intra=0 / bframes=4 / b_pyramid=2 / b_adapt=2 / b_bias=0 / direct=3 / weightb=1 / open_gop=0 / weightp=2 / keyint=250 / keyint_min=25 / scenecut=40 / intra_refresh=0 / rc_lookahead=50 / rc=crf / mbtree=1 / crf=18.0 / qcomp=0.60 / qpmin=0 / qpmax=69 / qpstep=4 / ip_ratio=1.40 / aq=1:1.00
Language : English
Default : No
Forced : No
Matrix coefficients : BT.709-5, BT.1361, IEC 61966-2-4 709, SMPTE RP177

Audio
ID : 2
Format : AC-3
Format/Info : Audio Coding 3
Mode extension : CM (complete main)
Format settings, Endianness : Big
Codec ID : A_AC3
Duration : 41mn 24s
Bit rate mode : Constant
Bit rate : 384 Kbps
Channel(s) : 6 channels
Channel positions : Front: L C R, Side: L R, LFE
Sampling rate : 48.0 KHz
Bit depth : 16 bits
Compression mode : Lossy
Stream size : 114 MiB (9%)
Default : Yes
Forced : No


Anyone has seen this problem before? All other files (mostly 29.97 fps play fine).

Running BS Player Free Version for Android 1.7 B146 on my Galaxy Note 10.1 ICS.

On PC both WMP and MPC play the file without any audio issues.

BSPeter 15th December 2012 03:28 AM

What are your settings of "Video decoding options", "Decoding mode" and "Codecs played in HW mode"
under menu > "Preferences" > "Playback preferences" ?
:wink:

gonijn 15th December 2012 09:50 AM

It's set to HW decoding. I tagged the 'drop frames' option in the HW decoding option and now it does work fine ;). Thanks for the hint!

BSPeter 15th December 2012 12:58 PM

Glad it helped you to find the cure!
:wink:


All times are GMT +1. The time now is 02:31 AM.

Powered by vBulletin® Version 3.8.9
Copyright ©2000 - 2020, vBulletin Solutions, Inc.
Search Engine Optimization by vBSEO 3.6.0 PL2
Ad Management plugin by RedTyger


1 2 3 4 5 6 7 8 9 10 11 12 13 14 15 16 17 18 19 20