Official BS.Player forums

Official BS.Player forums (http://forum.bsplayer.com/)
-   General Talk And Support (http://forum.bsplayer.com/general-talk-support/)
-   -   No audio on single AVI file (http://forum.bsplayer.com/general-talk-support/20659-no-audio-single-avi-file.html)

canadian1969 30th December 2012 06:57 PM

No audio on single AVI file
 
I would imagine this has something to do with the AC3 or MP3 filter or whatever, but have no idea how to correct it. Can anyone help me troubleshoot this? The file plays fine in VLC Player and BSPlayer plays pretty much everything else properly, so whats up with this file?

BSplayer 2.57
Klite codec pack
Divx download
AC3filter (downloaded, installed, didn't do anything)

Pentium D, GTS 250

The AVI file properties:

General
Format : AVI
Format/Info : Audio Video Interleave
Format profile : OpenDML
Format settings : rec
File size : 1.13 GiB
Duration : 2h 17mn
Overall bit rate : 1 182 Kbps
Writing application : AVI-Mux GUI 1.17.8.3, Feb 16 201019:42:50

Video
ID : 0
Format : MPEG-4 Visual
Format profile : Advanced Simple@L5
Format settings, BVOP : 2
Format settings, QPel : Yes
Format settings, GMC : No warppoints
Format settings, Matrix : Default (H.263)
Codec ID : XVID
Codec ID/Hint : XviD
Duration : 2h 17mn
Bit rate : 1 050 Kbps
Width : 624 pixels
Height : 336 pixels
Display aspect ratio : 1.857
Frame rate : 25.000 fps
Color space : YUV
Chroma subsampling : 4:2:0
Bit depth : 8 bits
Scan type : Progressive
Compression mode : Lossy
Bits/(Pixel*Frame) : 0.200
Stream size : 1.01 GiB (89%)
Writing library : XviD 1.2.1 (UTC 2008-12-04)

Audio
ID : 1
Format : MPEG Audio
Format version : Version 1
Format profile : Layer 3
Mode : Joint stereo
Mode extension : MS Stereo
Codec ID : 55
Codec ID/Hint : MP3
Duration : 2h 17mn
Bit rate mode : Constant
Bit rate : 128 Kbps
Channel(s) : 2 channels
Sampling rate : 48.0 KHz
Compression mode : Lossy
Stream size : 125 MiB (11%)
Alignment : Aligned on interleaves
Interleave, duration : 690 ms (17.25 video frames)
Interleave, preload duration : 216 ms
Title : VTS_14_1 T80 3_2ch 384Kbps DELAY 0ms
Writing library : LAME3.99r
Encoding settings : -m j -V 4 -q 2 -lowpass 17 -b 128

BSPeter 2nd January 2013 11:44 AM

We've always and consistently advised against installing codec-packs.
(Having installed one also surely doesn't help trouble shooting.)

When you installed BS.Player, did you also allow it to "internally" install its preferred codecs/filters? (Internally meaning not interfering with your system's codecs/filters, but only for use by BS.Player itself.)
(If you didn't, you can still do so by activating "codecmanager.exe", which you can find inside the folder in which BS.Player was installed.)

What's your OS? Maybe update BS.Player. Meanwhile we're on version 2.63.1071.

Maybe report which codecs/filters BS.Player actually uses to display this video file. To find out, load the file and then ..
...rightclick > Options > Filters > Advanced
Also click on "Source" and on the [+]-signs in front of the filters/codecs shown to get further info (and access).
:wink:

canadian1969 2nd January 2013 02:40 PM

XP SP3 is the OS.

Under the filters/advances/source it says:

Source
Location: C:\windows\system32\
quartz.dll, Size: 1292288 bytes, Version 6.5.2600.6169

CompanyName:
FileDescription:
FileVersion:
InternalName:
LegalCopyright:
LegalTradeMarks:
OriginalFilename:
ProductName:
ProductVersion:
Comments:

I have run codecmanager and it says I have old versions of FFDShow and MPEG 2, it seems to download the latest versions, but codecmanager continues to report them being out of date, so I then updated ffdshow manually as well I did the AC3 install manually although I received no AC3 errors. I did not update any MPEG codecs.

Codec manager still reports a couple older codecs (including MPEG2), but wont let me uninstall or update them (doesn't work from within codecmanager at least, which is why I updated FFD and AC3 off net).

http://i22.photobucket.com/albums/b3...ps0c02f278.jpg

Where in the filters advanced menu am I supposed to be looking for usable information?

adicoto 2nd January 2013 04:58 PM

The.Avengers.2012.DVDRip.XviD-NYDIC ?

adicoto 3rd January 2013 07:35 AM

I have downloaded the sample and none of my programs identify an audio stream inside AVI container.
VLC doesn't play any audio stream
MPC doesn't play any audio stream
MediaInfo doesn't detect any audio stream


All times are GMT +1. The time now is 10:28 AM.

Powered by vBulletin® Version 3.8.9
Copyright ©2000 - 2020, vBulletin Solutions, Inc.
Search Engine Optimization by vBSEO 3.6.0 PL2
Ad Management plugin by RedTyger


1 2 3 4 5 6 7 8 9 10 11 12 13 14 15 16 17 18 19 20