Official BS.Player forums

Official BS.Player forums (http://forum.bsplayer.com/)
-   General Talk And Support (http://forum.bsplayer.com/general-talk-support/)
-   -   BSP Crashes when loading video (http://forum.bsplayer.com/general-talk-support/35923-bsp-crashes-when-loading-video.html)

nbrewer 19th October 2015 05:35 PM

BSP Crashes when loading video
 
Hello all, and thanks in advance for your help. This is my first posting, and I appreciate any support you can provide.

This last weekend, I recorded my daughters wedding using Periscope, and afterwards I saved the file to my phone.
Last night, I went to play back the video, but noticed there is no sound. After some searching, I landed on the BSP page, and installed it. But, as soon as I open the video file, BSP bombs out and throws an unhandled exception message. Since I have Visual Studio installed, I open the debugger, and I see "Unhandled exception at 0x0F0289A0 (MpaDecFilter.ax) in bsplayer.exe: 0xC0000005: Access violation reading location 0x00000004."
I tried uninstalling MpaDecFilter manually, but have had no success. If I uninstall that Codec, I can watch the video, but of course, there's no sound.

I'm not sure what to try next. Any help would be appreciated.


Using BS.Player V 2.69, Build 1079, 08. Apr 2015
Hardware: HP Z420 Workstation
Recorded the vid on Samsung S6, using Periscope
Let me know if you need anything else.

Here's a mediainfo dump

General
Complete name : C:\Users\nb\Desktop\Pictures\Wedding\_Ceremony.mp4
Format : MPEG-4
Format profile : Base Media / Version 2
Codec ID : mp42
File size : 17.6 MiB
Duration : 19mn 43s
Overall bit rate : 125 Kbps
Encoded date : UTC 2015-10-17 21:31:43
Tagged date : UTC 2015-10-17 21:31:43

Video
ID : 2
Format : AVC
Format/Info : Advanced Video Codec
Format profile : Baseline@L2.1
Format settings, CABAC : No
Format settings, ReFrames : 1 frame
Format settings, GOP : M=1, N=48
Muxing mode : Container profile=High@1.3
Codec ID : avc1
Codec ID/Info : Advanced Video Coding
Duration : 19mn 43s
Source duration : 19mn 43s
Bit rate : 87.0 Kbps
Width : 320 pixels
Height : 568 pixels
Display aspect ratio : 0.563
Frame rate mode : Variable
Frame rate : 14.566 fps
Minimum frame rate : 0.748 fps
Maximum frame rate : 34.655 fps
Color space : YUV
Chroma subsampling : 4:2:0
Bit depth : 8 bits
Scan type : Progressive
Bits/(Pixel*Frame) : 0.033
Stream size : 12.3 MiB (70%)
Source stream size : 12.3 MiB (70%)
Title : VideoHandle
Language : English
Encoded date : UTC 2015-10-17 21:31:43
Tagged date : UTC 2015-10-17 21:31:43
mdhd_Duration : 1183631

Audio
ID : 1
Format : AAC
Format/Info : Advanced Audio Codec
Codec ID : 40
Duration : 19mn 43s
Bit rate mode : Constant
Bit rate : 32.8 Kbps
Nominal bit rate : 96.0 Kbps
Channel(s) : 1 channel
Sampling rate : 44.1 KHz
Compression mode : Lossy
Stream size : 4.62 MiB (26%)
Title : SoundHandle
Language : English
Encoded date : UTC 2015-10-17 21:31:43
Tagged date : UTC 2015-10-17 21:31:43
mdhd_Duration : 1183869

adicoto 19th October 2015 08:56 PM

As the file contains an AAC stream, normally it should be decodedd by an AAC filter, and not by MpaDecFilter.ax. Could you also install an AAC filter (such as CoreAAC) ?


All times are GMT +1. The time now is 12:50 PM.

Powered by vBulletin® Version 3.8.9
Copyright ©2000 - 2020, vBulletin Solutions, Inc.
Search Engine Optimization by vBSEO 3.6.0 PL2
Ad Management plugin by RedTyger


1 2 3 4 5 6 7 8 9 10 11 12 13 14 15 16 17 18 19 20