View Single Post
  #3 (permalink)  
Old 12th July 2012
adicoto adicoto is offline
Moderator
BS.Player Master
 
Join Date: Jan 2003
Location: Romania
Age: 52
Posts: 5,160
Rep Power: 27
adicoto is on a distinguished road
Default

Quote:
Originally Posted by sytze-v View Post
I dont now if thats the one , mediainfo give's me this info , and yes its in a container and .MKV

Format : Matroska Format version : Version 2 File size : 803 MiB Duration : 44mn 49s Overall bit rate : 2 503 Kbps Movie name : Buffy The Vampire Slayer - S03E05 - Episode 39 - Homecoming!!!! Encoded date : UTC 2011-10-08 11:42:31 Writing application : mkvmerge v4.0.0 ('The Stars were mine') built on Jun 6 2010 16:18:42 Writing library : libebml v1.0.0 + libmatroska v1.0.0
Video

ID : 1 Format : AVC Format/Info : Advanced Video Codec Format profile : High@L4.0 Format settings, CABAC : Yes Format settings, ReFrames : 3 frames Codec ID : V_MPEG4/ISO/AVC Duration : 44mn 49s Bit rate : 2 114 Kbps Width : 704 pixels Height : 528 pixels Display aspect ratio : 16:9 Original display aspect ratio : 4:3 Frame rate : 23.976 fps Color space : YUV Chroma subsampling : 4:2:0 Bit depth : 8 bits Scan type : Progressive Bits/(Pixel*Frame) : 0.237 Stream size : 663 MiB (83%) Writing library : x264 core 66 r1092 60f4cd8 Encoding settings : cabac=1 / ref=3 / deblock=1:-1:-1 / analyse=0x3:0x113 / me=umh / subme=9 / psy_rd=1.1:0.0 / mixed_ref=0 / me_range=16 / chroma_me=0 / trellis=0 / 8x8dct=1 / cqm=0 / deadzone=21,11 / chroma_qp_offset=-2 / threads=6 / nr=0 / decimate=1 / mbaff=0 / bframes=3 / b_pyramid=0 / b_adapt=2 / b_bias=0 / direct=3 / wpredb=1 / keyint=250 / keyint_min=25 / scenecut=40(pre) / rc=2pass / bitrate=2114 / ratetol=1.0 / qcomp=0.60 / qpmin=10 / qpmax=51 / qpstep=4 / cplxblur=20.0 / qblur=0.5 / vbv_maxrate=25000 / vbv_bufsize=14000 / ip_ratio=1.40 / pb_ratio=1.30 / aq=1:1.00 Language : English Default : No Forced : No
Audio #1

ID : 2 Format : AC-3 Format/Info : Audio Coding 3 Format profile : Dolby Digital Mode extension : CM (complete main) Format settings, Endianness : Big Codec ID : A_AC3 Duration : 44mn 49s Bit rate mode : Constant Bit rate : 192 Kbps Channel(s) : 2 channels Channel positions : Front: L R Sampling rate : 48.0 KHz Bit depth : 16 bits Compression mode : Lossy Stream size : 61.6 MiB (8%) Language : English Default : No Forced : No
Audio #2

ID : 3 Format : AC-3 Format/Info : Audio Coding 3 Format profile : Dolby Digital Mode extension : CM (complete main) Format settings, Endianness : Big Codec ID : A_AC3 Duration : 44mn 49s Bit rate mode : Constant Bit rate : 192 Kbps Channel(s) : 2 channels Channel positions : Front: L R Sampling rate : 48.0 KHz Bit depth : 16 bits Compression mode : Lossy Stream size : 61.6 MiB (8%) Language : English Default : No Forced : No
Text

ID : 4 Format : VobSub Muxing mode : zlib Codec ID : S_VOBSUB Codec ID/Info : The same subtitle format used on DVDs Language : English Default : No Forced : No
First info refer to an MPEG/MPEG2 file, the second info to an MPEG4-AVC file with included VobSub subtitles.
Last ones should work if Vsfilter is installed and in BSPlayer's subtitles preferences you enable VobSub support.
Which version of BSPlayer are we talking bout ?
Reply With Quote
 

1 2 3 4 5 6 7 8 9 10 11 12 13 14 15 16 17 18 19 20