Official BS.Player forums  

Go Back   Official BS.Player forums > Main forum > BSPlayer for Android

Reply
 
LinkBack Thread Tools Display Modes
  #1 (permalink)  
Old 23rd October 2013
Junior Member
BS.Player Newbie
 
Join Date: Oct 2013
Posts: 1
Rep Power: 0
sunny1081 is on a distinguished road
Cool Blankscreen on .ts files since Android 4.3

Hello Devs,

I'm using a SAT/IP Server to stream live TV, always played flawlessly. Since my Galaxy S4 got an upgrade to Android 4.3 it does not play anymore. The loading Circle is shown forever.

HW and HW experimental for 4.1+ gave the same result.
While in SW mode it is working but the playback is not fluent.
Doesn't matter if it is a recording played locally or streaming.

Here the Media Info. Please look into it.

KR
Sunny

General
ID : 3F9
Complete name : TV.ts
Format : MPEG-TS
File size : 161 MiB
Duration : 3mn 18s
Overall bit rate : 6 791 Kbps

Video
ID : 767 (0x2FF)
Menu ID : 61302 (0xEF76)
Format : AVC
Format/Info : Advanced Video Codec
Format profile : High@L4.0
Format settings, CABAC : Yes
Format settings, ReFrames : 4 frames
Format settings, GOP : M=1, N=15
Codec ID : 27
Duration : 3mn 18s
Bit rate : 6 068 Kbps
Width : 1 920 pixels
Height : 1 080 pixels
Display aspect ratio : 16:9
Frame rate : 25.000 fps
Standard : Component
Color space : YUV
Chroma subsampling : 4:2:0
Bit depth : 8 bits
Scan type : Interlaced
Scan order : Top Field First
Bits/(Pixel*Frame) : 0.117
Stream size : 144 MiB (89%)
Color primaries : BT.709-5, BT.1361, IEC 61966-2-4, SMPTE RP177
Transfer characteristics : BT.709-5, BT.1361
Matrix coefficients : BT.709-5, BT.1361, IEC 61966-2-4 709, SMPTE RP177

Audio
ID : 771 (0x303)
Menu ID : 61302 (0xEF76)
Format : AC-3
Format/Info : Audio Coding 3
Mode extension : CM (complete main)
Codec ID : 6
Duration : 3mn 18s
Bit rate mode : Constant
Bit rate : 384 Kbps
Channel(s) : 2 channels
Channel positions : Front: L R
Sampling rate : 48.0 KHz
Bit depth : 16 bits
Video delay : -1s 647ms
Stream size : 9.10 MiB (6%)
Language : German
Language, more info : Clean effects
Reply With Quote
Reply

Tags
android, blankscreen, files

Thread Tools
Display Modes

Posting Rules

LinkBacks (?)
LinkBack to this Thread: http://forum.bsplayer.com/bsplayer-android/21600-blankscreen-ts-files-since-android-4-3-a.html
Posted By For Type Date
android - Official BS.Player forums - Threads Tagged with android This thread Refback 26th December 2013 12:20 PM


All times are GMT +1. The time now is 12:26 PM.


Powered by vBulletin® Version 3.8.9
Copyright ©2000 - 2017, vBulletin Solutions, Inc.
Search Engine Optimization by vBSEO 3.6.0 PL2
Ad Management plugin by RedTyger

1 2 3 4 5 6 7 8 9 10 11 12 13 14 15 16 17 18 19