Official BS.Player forums

Official BS.Player forums (http://forum.bsplayer.com/)
-   General Talk And Support (http://forum.bsplayer.com/general-talk-support/)
-   -   Problem:line and staggered colors (http://forum.bsplayer.com/general-talk-support/30675-problem-line-staggered-colors.html)

Dripperpowwer 12th January 2015 04:23 PM

Problem:line and staggered colors
 
2 Attachment(s)
Opening a video file of the following format:

Video
ID : 1
Format : HEVC
Format/Info : High Efficiency Video Coding
Format profile : Main@L3.1
Codec ID : V_MPEGH/ISO/HEVC
Duration : 1h 19mn
Bit rate : 1 938 Kbps
Width : 1 280 pixels
Height : 544 pixels
Original height : 540 pixels
Display aspect ratio : 2.35:1
Original display aspect rat : 2.40:1
Frame rate mode : Constant
Frame rate : 23.976 fps
Color space : YUV
Chroma subsampling : 4:2:0
Bit depth : 8 bits
Bits/(Pixel*Frame) : 0.116
Stream size : 1.07 GiB (80%)
Default : Yes
Forced : No
Color primaries : BT.709
Transfer characteristics : BT.709
Matrix coefficients : BT.709
Color range : Limited

Audio #1
ID : 2
Format : AC-3
Format/Info : Audio Coding 3
Mode extension : CM (complete main)
Format settings, Endianness : Big
Codec ID : A_AC3
Duration : 1h 19mn
Bit rate mode : Constant
Bit rate : 192 Kbps
Channel(s) : 2 channels
Channel positions : Front: L R
Sampling rate : 48.0 KHz
Bit depth : 16 bits
Compression mode : Lossy
Stream size : 109 MiB (8%)
Language : English
Default : No
Forced : No

The video is with the colors and with a staggered row below, the thing I regret because it only happens with bs player and not with other readers,
being bs player is my absolute favorite, i ask courteously a possible solution, thank you.

Dripperpowwer 17th January 2015 02:09 AM

no help :(

adicoto 17th January 2015 07:00 AM

1. Could you post here which codecs are used to decode the stream ? Open file, rightclick -> options -> filters.
2. Could you try to swich to a different rendering engine and see if there is a difference ? Rightclick -> options -> preferences -> video -> video rendering methode and select from the drop-down box.

Dripperpowwer 17th January 2015 10:08 PM

1 Attachment(s)
thanks for your response!
I test all rendering engine = the problem remains
This is the option filters:

Dripperpowwer 18th January 2015 03:19 AM

SOLUTION....

BsPlayer can't play good the file, np, many other formats are perfect.

I have trasform this video file to normal avi file, now is ok.

Dripperpowwer 21st January 2015 05:55 AM

luckily I managed, this forum is cheap XD


All times are GMT +1. The time now is 05:39 PM.

Powered by vBulletin® Version 3.8.9
Copyright ©2000 - 2019, vBulletin Solutions, Inc.
Search Engine Optimization by vBSEO 3.6.0 PL2
Ad Management plugin by RedTyger


1 2 3 4 5 6 7 8 9 10 11 12 13 14 15 16 17 18 19 20