Official BS.Player forums  

Go Back   Official BS.Player forums > Main forum > General Talk And Support

General Talk And Support General talk and peer-to-peer support about BS.Player and other video and audio multimedia players.

Reply
 
LinkBack Thread Tools Display Modes
  #1 (permalink)  
Old 12th January 2015
Junior Member
BS.Player Newbie
 
Join Date: Jan 2015
Posts: 6
Rep Power: 0
Dripperpowwer is on a distinguished road
Default Problem:line and staggered colors

Opening a video file of the following format:

Video
ID : 1
Format : HEVC
Format/Info : High Efficiency Video Coding
Format profile : Main@L3.1
Codec ID : V_MPEGH/ISO/HEVC
Duration : 1h 19mn
Bit rate : 1 938 Kbps
Width : 1 280 pixels
Height : 544 pixels
Original height : 540 pixels
Display aspect ratio : 2.35:1
Original display aspect rat : 2.40:1
Frame rate mode : Constant
Frame rate : 23.976 fps
Color space : YUV
Chroma subsampling : 4:2:0
Bit depth : 8 bits
Bits/(Pixel*Frame) : 0.116
Stream size : 1.07 GiB (80%)
Default : Yes
Forced : No
Color primaries : BT.709
Transfer characteristics : BT.709
Matrix coefficients : BT.709
Color range : Limited

Audio #1
ID : 2
Format : AC-3
Format/Info : Audio Coding 3
Mode extension : CM (complete main)
Format settings, Endianness : Big
Codec ID : A_AC3
Duration : 1h 19mn
Bit rate mode : Constant
Bit rate : 192 Kbps
Channel(s) : 2 channels
Channel positions : Front: L R
Sampling rate : 48.0 KHz
Bit depth : 16 bits
Compression mode : Lossy
Stream size : 109 MiB (8%)
Language : English
Default : No
Forced : No

The video is with the colors and with a staggered row below, the thing I regret because it only happens with bs player and not with other readers,
being bs player is my absolute favorite, i ask courteously a possible solution, thank you.
Attached Images
File Type: jpg bs player.jpg (57.6 KB, 2 views)
File Type: jpg another player.jpg (53.9 KB, 2 views)
Reply With Quote
  #2 (permalink)  
Old 17th January 2015
Junior Member
BS.Player Newbie
 
Join Date: Jan 2015
Posts: 6
Rep Power: 0
Dripperpowwer is on a distinguished road
Default

no help :(
Reply With Quote
  #3 (permalink)  
Old 17th January 2015
Moderator
BS.Player Master
 
Join Date: Jan 2003
Location: Romania
Age: 50
Posts: 5,127
Rep Power: 25
adicoto is on a distinguished road
Default

1. Could you post here which codecs are used to decode the stream ? Open file, rightclick -> options -> filters.
2. Could you try to swich to a different rendering engine and see if there is a difference ? Rightclick -> options -> preferences -> video -> video rendering methode and select from the drop-down box.
Reply With Quote
  #4 (permalink)  
Old 17th January 2015
Junior Member
BS.Player Newbie
 
Join Date: Jan 2015
Posts: 6
Rep Power: 0
Dripperpowwer is on a distinguished road
Default

thanks for your response!
I test all rendering engine = the problem remains
This is the option filters:
Attached Images
File Type: jpg option filters.jpg (30.4 KB, 2 views)
Reply With Quote
  #5 (permalink)  
Old 18th January 2015
Junior Member
BS.Player Newbie
 
Join Date: Jan 2015
Posts: 6
Rep Power: 0
Dripperpowwer is on a distinguished road
Default

SOLUTION....

BsPlayer can't play good the file, np, many other formats are perfect.

I have trasform this video file to normal avi file, now is ok.
Reply With Quote
  #6 (permalink)  
Old 21st January 2015
Junior Member
BS.Player Newbie
 
Join Date: Jan 2015
Posts: 6
Rep Power: 0
Dripperpowwer is on a distinguished road
Default

luckily I managed, this forum is cheap XD
Reply With Quote
Reply

Tags
colors, problemline, staggered

Thread Tools
Display Modes

Posting Rules


All times are GMT +1. The time now is 07:10 PM.


Powered by vBulletin® Version 3.8.9
Copyright ©2000 - 2017, vBulletin Solutions, Inc.
Search Engine Optimization by vBSEO 3.6.0 PL2
Ad Management plugin by RedTyger

1 2 3 4 5 6 7 8 9 10 11 12 13 14 15 16 17 18 19