Official BS.Player forums  

Go Back   Official BS.Player forums > Main forum > Bug Reports And Codecs

Bug Reports And Codecs Report BS.Player bugs here - help us to improve BS.Player even further.

Reply
 
LinkBack Thread Tools Display Modes
  #1 (permalink)  
Old 2 Weeks Ago
Junior Member
BS.Player Newbie
 
Join Date: Mar 2017
Age: 31
Posts: 1
Rep Power: 0
BSPL is on a distinguished road
Default Portrait-oriented video are shown incorrectly

I am using BSPlayer 1.27 build 189 on Android 5.1

Portrait-oriented videos (example) are played incorrectly:

They are played as landscape videos andy the are rotated 90 degrees counter-clockwise.
The torchère on the video was recorded in the vertical state, but is being shown horizontally and rotated.

Same problem is in BSPlayer for Windows 2.7 build 1080, 02 Nov. 2015

I don`t have this problem in MX Player on Android.
Please look into this issue.

Media info
General
Format : MPEG-4
Format profile : 3GPP Media Release 4
Codec ID : 3gp4
File size : 1.48 MiB
Duration : 2s 490ms
Overall bit rate : 4 994 Kbps
Encoded date : UTC 2017-03-07 19:42:27
Tagged date : UTC 2017-03-07 19:42:27

Video
ID : 1
Format : MPEG-4 Visual
Format profile : Simple@L6
Format settings, BVOP : Yes
Format settings, QPel : No
Format settings, GMC : No warppoints
Format settings, Matrix : Default (H.263)
Codec ID : 20
Duration : 2s 407ms
Bit rate mode : Constant
Bit rate : 5 026 Kbps
Nominal bit rate : 256 Kbps
Width : 1 280 pixels
Height : 720 pixels
Display aspect ratio : 16:9
Rotation : 90°
Frame rate mode : Variable
Frame rate : 24.926 fps
Minimum frame rate : 24.855 fps
Maximum frame rate : 24.938 fps
Color space : YUV
Bit depth : 8 bits
Scan type : Progressive
Compression mode : Lossy
Bits/(Pixel*Frame) : 0.219
Stream size : 1.44 MiB (97%)
Title : VideoHandle
Writing library : MTK_ENCODER_V3
Language : English
Encoded date : UTC 2017-03-07 19:42:27
Tagged date : UTC 2017-03-07 19:42:27
mdhd_Duration : 2407

Audio
ID : 2
Format : AAC
Format/Info : Advanced Audio Codec
Format profile : LC
Codec ID : 40
Duration : 2s 490ms
Duration_FirstFrame : 16ms
Bit rate mode : Constant
Bit rate : 128 Kbps
Nominal bit rate : 12.2 Kbps
Channel(s) : 2 channels
Channel positions : Front: L R
Sampling rate : 48.0 KHz
Compression mode : Lossy
Stream size : 39.0 KiB (3%)
Title : SoundHandle
Language : English
Encoded date : UTC 2017-03-07 19:42:27
Tagged date : UTC 2017-03-07 19:42:27
Reply With Quote
Reply

Tags
incorrectly, portraitoriented, shown, video

Thread Tools
Display Modes

Posting Rules

Similar Threads
Thread Thread Starter Forum Replies Last Post
Bs.Player Crash When Mpegsplitter.ax zeev General Talk And Support 19 23rd August 2007 10:32 AM
crashes playing ogm or mkv files aok General Talk And Support 38 28th February 2006 10:58 PM


All times are GMT +1. The time now is 11:27 PM.


Powered by vBulletin® Version 3.8.9
Copyright ©2000 - 2017, vBulletin Solutions, Inc.
Search Engine Optimization by vBSEO 3.6.0 PL2
Ad Management plugin by RedTyger

1 2 3 4 5 6 7 8 9 10 11 12 13 14 15 16 17 18 19