Official BS.Player forums

Official BS.Player forums (http://forum.bsplayer.com/)
-   General Talk And Support (http://forum.bsplayer.com/general-talk-support/)
-   -   I have problem to run few files (http://forum.bsplayer.com/general-talk-support/11397-i-have-problem-run-few-files.html)

Rocho 24th June 2010 01:41 PM

here it is the 1st video:


Format : MPEG-PS
Overall bit rate : 1 140 Kbps

Video
ID : 224 (0xE0)
Format : MPEG Video
Format version : Version 1
Format settings, BVOP : Yes
Format settings, Matrix : Default
Duration : 1h 7mn
Bit rate mode : Constant
Bit rate : 1 000 Kbps
Width : 400 pixels
Height : 320 pixels
Display aspect ratio : 5:4
Frame rate : 29.970 fps
Color space : YUV
Bit depth : 8 bits
Scan type : Progressive
Bits/(Pixel*Frame) : 0.261
Stream size : 475 MiB (87%)

Audio
ID : 192 (0xC0)
Format : MPEG Audio
Format version : Version 1
Format profile : Layer 2
Duration : 1h 7mn
Bit rate mode : Constant
Bit rate : 128 Kbps
Channel(s) : 1 channel
Sampling rate : 48.0 KHz
Video delay : 251ms
Stream size : 61.5 MiB (11%)

Now i tried several times to run it and close it and all is ok. For now BS only one time was non response.

Rocho 26th June 2010 05:07 PM

Here are 2 new video files:


File size : 599 MiB
Duration : 2h 7mn
Overall bit rate : 657 Kbps
Encoded date : UTC 2010-02-23 12:04:50
Writing application : mkvmerge v2.9.7 ('Tenderness') built on Jul 1 2009 18:43:35
Writing library : libebml v0.7.7 + libmatroska v0.8.1

Video
ID : 1
Format : AVC
Format/Info : Advanced Video Codec
Format profile : High@L4.0
Format settings, CABAC : Yes
Format settings, ReFrames : 8 frames
Muxing mode : Container profile=Unknown@4.0
Codec ID : V_MPEG4/ISO/AVC
Duration : 2h 7mn
Width : 1 280 pixels
Height : 720 pixels
Display aspect ratio : 16:9
Frame rate : 23.976 fps
Color space : YUV
Chroma subsampling : 4:2:0
Bit depth : 8 bits
Scan type : Progressive
Language : English

Audio
ID : 2
Format : AAC
Format/Info : Advanced Audio Codec
Format version : Version 4
Format profile : LC
Format settings, SBR : Yes
Format settings, PS : No
Codec ID : A_AAC
Duration : 2h 7mn
Channel(s) : 2 channels
Channel positions : Front: L R
Sampling rate : 48.0 KHz

Text
ID : 3
Format : UTF-8
Codec ID : S_TEXT/UTF8
Codec ID/Info : UTF-8 Plain Text



------------------------------------------------------------------



Format : AVI
Format/Info : Audio Video Interleave
File size : 698 MiB
Duration : 1h 6mn
Overall bit rate : 1 470 Kbps
Writing application : VirtualDubMod 1.5.10.2 (build 2540/release)
Writing library : VirtualDubMod build 2540/release

Video
ID : 0
Format : MPEG-4 Visual
Format profile : Advanced Simple@L5
Format settings, BVOP : Yes
Format settings, QPel : No
Format settings, GMC : No warppoints
Format settings, Matrix : Default (H.263)
Codec ID : XVID
Codec ID/Hint : XviD
Duration : 1h 6mn
Bit rate : 1 333 Kbps
Width : 576 pixels
Height : 432 pixels
Display aspect ratio : 4:3
Frame rate : 29.970 fps
Color space : YUV
Chroma subsampling : 4:2:0
Bit depth : 8 bits
Scan type : Progressive
Bits/(Pixel*Frame) : 0.179
Stream size : 633 MiB (91%)
Writing library : XviD 1.2.1 (UTC 2008-12-04)

Audio
ID : 1
Format : MPEG Audio
Format version : Version 1
Format profile : Layer 3
Mode : Joint stereo
Mode extension : MS Stereo
Codec ID : 55
Codec ID/Hint : MP3
Duration : 1h 6mn
Bit rate mode : Variable
Bit rate : 128 Kbps
Channel(s) : 2 channels
Sampling rate : 48.0 KHz
Stream size : 58.6 MiB (8%)
Alignment : Aligned on interleaves
Interleave, duration : 24 ms (0.72 video frame)
Interleave, preload duration : 149 ms
Writing library : LAME3.90.
Encoding settings : -m j -V 4 -q 2 -lowpass 17.6 --abr 128





------------------------------------------




One more file:


Format : Windows Media
File size : 593 MiB
Duration : 1h 15mn
Overall bit rate mode : Variable
Overall bit rate : 1 099 Kbps
Maximum Overall bit rate : 1 606 Kbps
Movie name :
Performer :
Encoded date : UTC 2006-07-19 00:45:22.953

Video
ID : 2
Format : VC-1
Format profile : MP@ML
Codec ID : WMV3
Codec ID/Info : Windows Media Video 9
Codec ID/Hint : WMV3
Description of the codec : Windows Media Video 9
Duration : 1h 15mn
Bit rate mode : Variable
Bit rate : 1 000 Kbps
Width : 720 pixels
Height : 480 pixels
Display aspect ratio : 3:2
Frame rate : 30.000 fps
Standard : NTSC
Bit depth : 8 bits
Scan type : Progressive
Bits/(Pixel*Frame) : 0.096
Stream size : 540 MiB (91%)
Language : English (US)

Audio
ID : 1
Format : WMA
Format version : Version 2
Codec ID : 161
Codec ID/Info : Windows Media Audio
Description of the codec : Windows Media Audio 9 - 96 kbps, 44 kHz, stereo 1-pass CBR
Duration : 1h 15mn
Bit rate mode : Constant
Bit rate : 96.0 Kbps
Channel(s) : 2 channels
Sampling rate : 44.1 KHz
Bit depth : 16 bits
Stream size : 51.8 MiB (9%)
Language : English (US)



-----------------------------------------





Format : AVI
Format/Info : Audio Video Interleave
File size : 700 MiB
Duration : 1h 31mn
Overall bit rate : 1 066 Kbps
Writing application : VirtualDubMod 1.5.4.1 (build 2178/release)
Writing library : VirtualDubMod build 2178/release

Video
ID : 0
Format : MPEG-4 Visual
Format profile : Advanced Simple@L5
Format settings, BVOP : Yes
Format settings, QPel : No
Format settings, GMC : No warppoints
Format settings, Matrix : Custom
Codec ID : XVID
Codec ID/Hint : XviD
Duration : 1h 31mn
Bit rate : 947 Kbps
Width : 448 pixels
Height : 288 pixels
Display aspect ratio : 1.556
Frame rate : 25.000 fps
Color space : YUV
Chroma subsampling : 4:2:0
Bit depth : 8 bits
Scan type : Progressive
Bits/(Pixel*Frame) : 0.294
Stream size : 622 MiB (89%)
Writing library : XviD 1.2.0.dev47 (UTC 2006-11-01)

Audio
ID : 1
Format : MPEG Audio
Format version : Version 1
Format profile : Layer 3
Mode : Joint stereo
Mode extension : MS Stereo
Codec ID : 55
Codec ID/Hint : MP3
Duration : 1h 31mn
Bit rate mode : Variable
Bit rate : 106 Kbps
Nominal bit rate : 128 Kbps
Channel(s) : 2 channels
Sampling rate : 48.0 KHz
Stream size : 69.6 MiB (10%)
Alignment : Aligned on interleaves
Interleave, duration : 24 ms (0.60 video frame)
Interleave, preload duration : 279 ms
Writing library : LAME3.97
Encoding settings : -m j -V 4 -q 2 -lowpass 17 --abr 128

adicoto 29th June 2010 04:07 PM

This is a total mixture of media files. They have nothing in common, so I believe the problem lies elswhere. I will get back.

Rocho 3rd July 2010 08:37 PM

Do have any new idea? I already have a new problem but that's probably with codec. I will open a new topic.

adicoto 4th July 2010 04:13 PM

Sorry, I was out for the weekend.

Rocho 9th July 2010 11:05 PM

A new weekend is coming again :(

This is very annoying. I never was so unsatisfied with BSplayer as now (i use it over 3 years).

When i create playlist and i want to go to a next video (or when video is finished) then it want to crash too.

Rocho 15th July 2010 01:53 PM

adicoto, why do you ignore me?

adicoto 15th July 2010 07:14 PM

I am not ignoring you. Just that I don't have for now a solution. The problems are too different to be caused by the same thing (unless it's BSPlayer itself).
Which version do we talk about ? 'cause playlist problem was solved some builds ago.

Rocho 16th July 2010 12:12 PM

It is 2.53 build 1034

adicoto 16th July 2010 02:44 PM

Can you upgrade to at least 1035 ?

Rocho 16th August 2010 09:48 PM

I was on holiday.

I thought i fixed the problem with 2.56.1043 verision but today had happen the same and old problem :(((

Rocho 28th August 2010 12:39 PM

Will we continue to work on this problem?

adicoto 28th August 2010 05:34 PM

As I stated above, those files have nothing in common. The problem lies elswhere. As you installed a newer version, my last ideea is that the problem cn be found in Direct Show. So, my last advice is to install a newer version of DirectX.
Prior to that, for the files listed above, can you post the filters used to decode the files ? Each filter for each of the files. Probably the single filter common to all files will be quartz.dll, the core of Direct Show (I hope).

Rocho 4th September 2010 11:35 AM

Sorry, but i foreget the names of those files. Only to wait for a new no response file where i will check again.

When i want to check filters do i have to go: Options > Filters > Andvanced ?

I downloaded this to update directx "DirectX End-User Runtime Web Installer" it is already updated. But i think i need it for DirectX 11 to update (mt gpu is 5770) do i need to download this? DirectX End-User Runtimes (February 2010) download from Guru3D.com

adicoto 4th September 2010 05:50 PM

Quote:

Originally Posted by Rocho (Beitrag 42696)
Sorry, but i foreget the names of those files. Only to wait for a new no response file where i will check again.

When i want to check filters do i have to go: Options > Filters > Andvanced ?

Yes. After that we will look into directx

Rocho 5th September 2010 02:11 PM

This movie had 1 time problem when i tried to close BSplayer and i get no response window.

Format : AVI
Format/Info : Audio Video Interleave
File size : 702 MiB
Duration : 1h 47mn
Overall bit rate : 916 Kbps
Writing application : VirtualDubMod 1.5.10.1 (build 2366/release)
Writing library : VirtualDubMod build 2366/release

Video
ID : 0
Format : MPEG-4 Visual
Format profile : Advanced Simple@L5
Format settings, BVOP : Yes
Format settings, QPel : No
Format settings, GMC : No warppoints
Format settings, Matrix : Default (H.263)
Codec ID : DX50
Codec ID/Hint : DivX 5
Duration : 1h 47mn
Bit rate : 795 Kbps
Width : 608 pixels
Height : 332 pixels
Display aspect ratio : 16:9
Frame rate : 25.000 fps
Color space : YUV
Chroma subsampling : 4:2:0
Bit depth : 8 bits
Scan type : Progressive
Bits/(Pixel*Frame) : 0.157
Stream size : 609 MiB (87%)
Writing library : XviD 1.0.3 (UTC 2004-12-20)

Audio
ID : 1
Format : MPEG Audio
Format version : Version 1
Format profile : Layer 3
Codec ID : 55
Codec ID/Hint : MP3
Duration : 1h 47mn
Bit rate mode : Constant
Bit rate : 112 Kbps
Channel(s) : 2 channels
Sampling rate : 48.0 KHz
Stream size : 85.8 MiB (12%)
Alignment : Aligned on interleaves
Interleave, duration : 40 ms (1.00 video frame)
Interleave, preload duration : 504 ms


http://www.imageurlhost.com/images/i...pbbjaoxqv8.jpg
Is this what you looking for?



Now i started several time the same movie, jumped over the file then i closed and i didn't get problem again.

adicoto 5th September 2010 06:37 PM

Should be fine to see all the filters used.
WOW64 folder it's used in a Windows 64 bit environement to run 32 bit applications. If you are running 64 bit windows, should install 64bit ffdshow. It may be an incompatibility between. Not sure, but worth try.

http://www.freecodecs.net/fc/ffdshow...100902_x64.zip

Rocho 6th September 2010 12:40 AM

I wont get any problems bcz i use 32bit and now i have to install over it 64bit?

http://www.imageurlhost.com/images/3...3m0ugocajv.jpg
http://www.imageurlhost.com/images/1...n5i7nhs3zd.jpg
http://www.imageurlhost.com/images/z...4yjx914438.jpg
http://www.imageurlhost.com/images/5...z2673ohnd1.jpg
http://www.imageurlhost.com/images/y...o0r0eijzam.jpg
http://www.imageurlhost.com/images/f...gnzvs4ogp9.jpg

adicoto 6th September 2010 06:10 AM

1. You installed ffdshow from a codec pack. Not the best thing to do.
2. It's installed in x86 folder, so it's clear that is the 32 bit version.
3. Uninstallin it's not my best advice right now, as it comes from a codec pack. I've seen some messed up systems after uninstalling codec packs. But it may be the cause.
4. Post the "source " filter too.

Rocho 6th September 2010 12:24 PM

Here it is:

http://www.imageurlhost.com/images/b...31q4pclp0b.jpg


All times are GMT +1. The time now is 07:47 AM.

Powered by vBulletin® Version 3.8.9
Copyright ©2000 - 2020, vBulletin Solutions, Inc.
Search Engine Optimization by vBSEO 3.6.0 PL2
Ad Management plugin by RedTyger


1 2 3 4 5 6 7 8 9 10 11 12 13 14 15 16 17 18 19 20