Official BS.Player forums

Official BS.Player forums (http://forum.bsplayer.com/)
-   General Talk And Support (http://forum.bsplayer.com/general-talk-support/)
-   -   I have problem to run few files (http://forum.bsplayer.com/general-talk-support/11397-i-have-problem-run-few-files.html)

adicoto 6th September 2010 02:40 PM

OK, at tis moment I will try to uninstall just ffdshow from inside K-lite and install the 64 bit version (just ffdshow).

Rocho 7th September 2010 02:20 PM

This file had also crushed Bsplayer:

Format : AVI
Format/Info : Audio Video Interleave
File size : 349 MiB
Duration : 44mn 7s
Overall bit rate : 1 106 Kbps
Writing application : VirtualDubMod 1.5.10.2 (build 2540/release)
Writing library : VirtualDubMod build 2540/release

Video
ID : 0
Format : MPEG-4 Visual
Format profile : Advanced Simple@L5
Format settings, BVOP : Yes
Format settings, QPel : No
Format settings, GMC : No warppoints
Format settings, Matrix : Default (H.263)
Muxing mode : Packed bitstream
Codec ID : XVID
Codec ID/Hint : XviD
Duration : 44mn 7s
Bit rate : 968 Kbps
Width : 640 pixels
Height : 400 pixels
Display aspect ratio : 1.600
Frame rate : 25.000 fps
Color space : YUV
Chroma subsampling : 4:2:0
Bit depth : 8 bits
Scan type : Progressive
Bits/(Pixel*Frame) : 0.151
Stream size : 305 MiB (88%)
Writing library : XviD 1.2.1 (UTC 2008-12-04)

Audio
ID : 1
Format : MPEG Audio
Format version : Version 1
Format profile : Layer 3
Mode : Joint stereo
Mode extension : MS Stereo
Codec ID : 55
Codec ID/Hint : MP3
Duration : 44mn 7s
Bit rate mode : Constant
Bit rate : 128 Kbps
Channel(s) : 2 channels
Sampling rate : 48.0 KHz
Stream size : 40.4 MiB (12%)
Alignment : Aligned on interleaves
Interleave, duration : 40 ms (1.00 video frame)
Interleave, preload duration : 504 ms



http://www.imageurlhost.com/images/6...sdvyhi1vu3.jpg
http://www.imageurlhost.com/images/d...qt65nk16nw.jpg
http://www.imageurlhost.com/images/o...5vbr4wuzdi.jpg
http://www.imageurlhost.com/images/j...vqu8azdl37.jpg
http://www.imageurlhost.com/images/l...fszj0fbbvo.jpg
http://www.imageurlhost.com/images/n...1a0xlx7l3b.jpg
http://www.imageurlhost.com/images/l...kxtooin7gn.jpg

adicoto 7th September 2010 04:06 PM

Same ffdshow as decoder.
Just to test. Blacklist ffdshow or disable MPEG4 support in ffdshow video configuration. 7's MPEG4 decoder should take it's place as favorite decoder. See if problem still persist.

Rocho 9th September 2010 12:29 AM

All these in yellow?
http://www.imageurlhost.com/images/y...94xj_thumb.jpg



Or this?
http://www.imageurlhost.com/images/o...kjt6_thumb.jpg


One of these to choose what i will put on blacklist or disable it?

adicoto 9th September 2010 06:11 AM

Second image, XviD and DivX -> disable.

Rocho 9th September 2010 12:05 PM

Ok, i disabled Xvid and DivX 4/5/6. Now i am waiting...

adicoto 9th September 2010 06:16 PM

For ?
A file to crash ? Browse some files and play them :happyroll:

Rocho 10th September 2010 11:18 AM

It wasn't helped :(. Why only i get this problem :(

adicoto 10th September 2010 12:10 PM

Can you confirm that there is no longer ffdshow in the list of used filters ? Same screens as above ?

Rocho 10th September 2010 09:10 PM

here it is:

http://www.imageurlhost.com/images/e...ru6q5ax8jo.jpg

adicoto 10th September 2010 09:18 PM

No, I mean open such a file and post the filters used to decode the file. Like in the first screenshots with bsplayer's filter window.

Rocho 11th September 2010 11:38 PM

Can i post filters from other file? I deleted those files.

adicoto 12th September 2010 06:00 AM

As long as it's an MPEG4

Rocho 13th September 2010 05:28 PM

This file has been crushed when i tried to turn off Bsplayer.
http://www.imageurlhost.com/images/s...d4v6m89e0k.jpg

Format : AVI
Format/Info : Audio Video Interleave
File size : 349 MiB
Duration : 44mn 9s
Overall bit rate : 1 104 Kbps
Writing application : VirtualDubMod 1.5.10.2 (build 2540/release)
Writing library : VirtualDubMod build 2540/release

Video
ID : 0
Format : MPEG-4 Visual
Format profile : Advanced Simple@L5
Format settings, BVOP : Yes
Format settings, QPel : No
Format settings, GMC : No warppoints
Format settings, Matrix : Default (H.263)
Muxing mode : Packed bitstream
Codec ID : XVID
Codec ID/Hint : XviD
Duration : 44mn 9s
Bit rate : 967 Kbps
Width : 640 pixels
Height : 416 pixels
Display aspect ratio : 3:2
Frame rate : 25.000 fps
Color space : YUV
Chroma subsampling : 4:2:0
Bit depth : 8 bits
Scan type : Progressive
Bits/(Pixel*Frame) : 0.145
Stream size : 305 MiB (88%)
Writing library : XviD 1.2.1 (UTC 2008-12-04)

Audio
ID : 1
Format : MPEG Audio
Format version : Version 1
Format profile : Layer 3
Mode : Joint stereo
Mode extension : MS Stereo
Codec ID : 55
Codec ID/Hint : MP3
Duration : 44mn 9s
Bit rate mode : Constant
Bit rate : 128 Kbps
Channel(s) : 2 channels
Sampling rate : 48.0 KHz
Stream size : 40.4 MiB (12%)
Alignment : Aligned on interleaves
Interleave, duration : 40 ms (1.00 video frame)
Interleave, preload duration : 504 ms



http://www.imageurlhost.com/images/j...vg2fqj98zo.jpg
http://www.imageurlhost.com/images/h...b9nbtnch97.jpg
http://www.imageurlhost.com/images/r...onq2kl5jaq.jpg
http://www.imageurlhost.com/images/z...5rduj4cjrj.jpg
http://www.imageurlhost.com/images/e...h5v6vlmo2g.jpg
http://www.imageurlhost.com/images/6...od9gk7nbv0.jpg
http://www.imageurlhost.com/images/q...rlelic4uax.jpg

adicoto 14th September 2010 01:25 AM

Something is really wrong, as ffdshow still shows up. It's not disabled. Last measure, uninstall ffdshow.

Rocho 14th September 2010 09:57 AM

How to uninstall when it is in packet K-lite codec pack?

adicoto 14th September 2010 02:33 PM

If there is an uninstall shortcut in start menu under K-Lite, start it and see if you can uninstall just ffdshow.

Rocho 14th September 2010 07:43 PM

No, i can't. I can only uninstall complete.

adicoto 15th September 2010 05:29 AM

Do you recall if at install you have the option to uncheck the filters you don't want to install ? If so, uninstall K-lite and reinstall it but uncheck ffdshow.

LE: by any chance, did you install ffdshow from K-lite AND also through BSPlayer's codec manager ?

Rocho 15th September 2010 09:24 AM

1. I think i had it. I will uninstall/install again.

2. No, i did not.


All times are GMT +1. The time now is 07:17 AM.

Powered by vBulletin® Version 3.8.9
Copyright ©2000 - 2020, vBulletin Solutions, Inc.
Search Engine Optimization by vBSEO 3.6.0 PL2
Ad Management plugin by RedTyger


1 2 3 4 5 6 7 8 9 10 11 12 13 14 15 16 17 18 19 20