Official BS.Player forums  

Go Back   Official BS.Player forums > Main forum > BSPlayer for Android

Reply
 
LinkBack Thread Tools Display Modes
  #1 (permalink)  
Old 2nd February 2012
Junior Member
BS.Player Newbie
 
Join Date: Feb 2012
Posts: 2
Rep Power: 0
qicgun is on a distinguished road
Default Vorbis Audio issue playback on Android BSplayer

Hi,

I'm using BSplayer lite ver. 1.2.124 on my Asus Transformer (Terga2, 1Gb RAM) and it's been great player.

However, recently I just have an issue when playback my anime .mkv with vorbis audio. The .mkv file info as below:

General
Unique ID : 181245413184324120234636212243901240796 (0x885A98CB634BD2F2BE83AEF35FE4D5DC)
Complete name : D:\Personal\Anime\Gundam AGE\[AG] Gundam AGE - 09 [720p][AB0D59D4].mkv
Format : Matroska
Format version : Version 2
File size : 381 MiB
Duration : 24mn 29s
Overall bit rate : 2 173 Kbps
Encoded date : UTC 2011-12-19 17:16:46
Writing application : mkvmerge v3.4.0 ('Rapunzel') built on May 15 2010 09:38:20
Writing library : libebml v0.8.0 + libmatroska v0.9.0
Attachment : Yes / Yes / Yes / Yes

Video
ID : 1
Format : AVC
Format/Info : Advanced Video Codec
Format profile : High@L4.1
Format settings, CABAC : Yes
Format settings, ReFrames : 8 frames
Codec ID : V_MPEG4/ISO/AVC
Duration : 24mn 29s
Bit rate mode : Variable
Bit rate : 1 553 Kbps
Maximum bit rate : 40.0 Mbps
Width : 1 280 pixels
Height : 720 pixels
Display aspect ratio : 16:9
Frame rate : 23.976 fps
Color space : YUV
Chroma subsampling : 4:2:0
Bit depth : 8 bits
Scan type : Progressive
Bits/(Pixel*Frame) : 0.070
Stream size : 272 MiB (71%)
Title : Mobile Suit Gundam AGE - Episode 9: The Secret Mobile Suit
Writing library : x264 core 98 r1649 20cbe10
Encoding settings : cabac=1 / ref=9 / deblock=1:1:1 / analyse=0x3:0x113 / me=umh / subme=9 / psy=1 / psy_rd=1.00:0.00 / mixed_ref=1 / me_range=24 / chroma_me=1 / trellis=1 / 8x8dct=1 / cqm=0 / deadzone=21,11 / fast_pskip=1 / chroma_qp_offset=-2 / threads=3 / sliced_threads=0 / slices=4 / nr=0 / decimate=1 / interlaced=0 / constrained_intra=0 / bframes=3 / b_pyramid=1 / b_adapt=1 / b_bias=0 / direct=1 / weightb=1 / weightp=0 / keyint=24 / keyint_min=2 / scenecut=40 / intra_refresh=0 / rc_lookahead=24 / rc=crf / mbtree=1 / crf=20.0 / qcomp=0.60 / qpmin=10 / qpmax=51 / qpstep=4 / vbv_maxrate=40000 / vbv_bufsize=30000 / crf_max=0.0 / ip_ratio=1.40 / aq=1:0.60 / nal_hrd=vbr
Language : Japanese
Color primaries : BT.709-5, BT.1361, IEC 61966-2-4, SMPTE RP177
Transfer characteristics : BT.709-5, BT.1361
Matrix coefficients : BT.709-5, BT.1361, IEC 61966-2-4 709, SMPTE RP177

Audio
ID : 2
Format : Vorbis
Format settings, Floor : 1
Codec ID : A_VORBIS
Duration : 24mn 29s
Bit rate mode : Variable
Bit rate : 576 Kbps
Channel(s) : 6 channels
Sampling rate : 48.0 KHz
Compression mode : Lossy
Stream size : 101 MiB (27%)
Title : Japanese Audio
Writing library : libVorbis 20090709 (UTC 2009-07-09)
Language : Japanese

Text
ID : 3
Format : ASS
Codec ID : S_TEXT/ASS
Codec ID/Info : Advanced Sub Station Alpha
Compression mode : Lossless
Title : English Subtitles
Language : English

Playback with HW Acceleration (BS engine) the video is fine but audio is totally distorted. I tried another file with the same audio codec and got the same problem.

Does BSplayer on Android support Vorbis audio? Is there anyway to solve this issue?

Thanks.
Reply With Quote
  #2 (permalink)  
Old 5th February 2012
Junior Member
BS.Player Newbie
 
Join Date: Feb 2012
Posts: 2
Rep Power: 0
qicgun is on a distinguished road
Default

Hi,
I was able to use MX Video Player to playback the above file (under SW decoding) with no issue on both video and audio.
But i'd prefer using BSplayer. Is there any fix possible?
Appreciate any help. Thanks.
Reply With Quote
Reply

Tags
android, audio, issue, playback, vorbis

Thread Tools
Display Modes

Posting Rules

Similar Threads
Thread Thread Starter Forum Replies Last Post
BUGS in BSplayer v2.12.941 (Normal/Pro) Tizio Bug Reports And Codecs 0 5th October 2006 07:43 PM
bsplayer 1.36 (825) restarts the playback of any audio file mhanor Bug Reports And Codecs 0 29th December 2005 03:00 AM
READ THIS FIRST BEFORE POSTING BSPeter General Talk And Support 0 17th January 2005 01:29 AM
Fixing the Icon Problem for yourself neato713 Feature Requests, Feedback And Suggestions 1 3rd October 2004 03:04 PM
Testing subtitles, overlays and filters. Wormlord1442 Bug Reports And Codecs 0 5th February 2004 08:07 PM


All times are GMT +1. The time now is 06:37 PM.


Powered by vBulletin® Version 3.8.9
Copyright ©2000 - 2017, vBulletin Solutions, Inc.
Search Engine Optimization by vBSEO 3.6.0 PL2
Ad Management plugin by RedTyger

1 2 3 4 5 6 7 8 9 10 11 12 13 14 15 16 17 18 19