Official BS.Player forums  

Go Back   Official BS.Player forums > Main forum > General Talk And Support

General Talk And Support General talk and peer-to-peer support about BS.Player and other video and audio multimedia players.

Reply
 
LinkBack Thread Tools Search this Thread Display Modes
  #21 (permalink)  
Old 24th June 2010
Senior Member
BS.Player Power User
 
Join Date: Jan 2009
Posts: 129
Rep Power: 0
Rocho is an unknown quantity at this point
Default

here it is the 1st video:


Format : MPEG-PS
Overall bit rate : 1 140 Kbps

Video
ID : 224 (0xE0)
Format : MPEG Video
Format version : Version 1
Format settings, BVOP : Yes
Format settings, Matrix : Default
Duration : 1h 7mn
Bit rate mode : Constant
Bit rate : 1 000 Kbps
Width : 400 pixels
Height : 320 pixels
Display aspect ratio : 5:4
Frame rate : 29.970 fps
Color space : YUV
Bit depth : 8 bits
Scan type : Progressive
Bits/(Pixel*Frame) : 0.261
Stream size : 475 MiB (87%)

Audio
ID : 192 (0xC0)
Format : MPEG Audio
Format version : Version 1
Format profile : Layer 2
Duration : 1h 7mn
Bit rate mode : Constant
Bit rate : 128 Kbps
Channel(s) : 1 channel
Sampling rate : 48.0 KHz
Video delay : 251ms
Stream size : 61.5 MiB (11%)

Now i tried several times to run it and close it and all is ok. For now BS only one time was non response.
Reply With Quote
  #22 (permalink)  
Old 26th June 2010
Senior Member
BS.Player Power User
 
Join Date: Jan 2009
Posts: 129
Rep Power: 0
Rocho is an unknown quantity at this point
Default

Here are 2 new video files:


File size : 599 MiB
Duration : 2h 7mn
Overall bit rate : 657 Kbps
Encoded date : UTC 2010-02-23 12:04:50
Writing application : mkvmerge v2.9.7 ('Tenderness') built on Jul 1 2009 18:43:35
Writing library : libebml v0.7.7 + libmatroska v0.8.1

Video
ID : 1
Format : AVC
Format/Info : Advanced Video Codec
Format profile : High@L4.0
Format settings, CABAC : Yes
Format settings, ReFrames : 8 frames
Muxing mode : Container profile=Unknown@4.0
Codec ID : V_MPEG4/ISO/AVC
Duration : 2h 7mn
Width : 1 280 pixels
Height : 720 pixels
Display aspect ratio : 16:9
Frame rate : 23.976 fps
Color space : YUV
Chroma subsampling : 4:2:0
Bit depth : 8 bits
Scan type : Progressive
Language : English

Audio
ID : 2
Format : AAC
Format/Info : Advanced Audio Codec
Format version : Version 4
Format profile : LC
Format settings, SBR : Yes
Format settings, PS : No
Codec ID : A_AAC
Duration : 2h 7mn
Channel(s) : 2 channels
Channel positions : Front: L R
Sampling rate : 48.0 KHz

Text
ID : 3
Format : UTF-8
Codec ID : S_TEXT/UTF8
Codec ID/Info : UTF-8 Plain Text



------------------------------------------------------------------



Format : AVI
Format/Info : Audio Video Interleave
File size : 698 MiB
Duration : 1h 6mn
Overall bit rate : 1 470 Kbps
Writing application : VirtualDubMod 1.5.10.2 (build 2540/release)
Writing library : VirtualDubMod build 2540/release

Video
ID : 0
Format : MPEG-4 Visual
Format profile : Advanced Simple@L5
Format settings, BVOP : Yes
Format settings, QPel : No
Format settings, GMC : No warppoints
Format settings, Matrix : Default (H.263)
Codec ID : XVID
Codec ID/Hint : XviD
Duration : 1h 6mn
Bit rate : 1 333 Kbps
Width : 576 pixels
Height : 432 pixels
Display aspect ratio : 4:3
Frame rate : 29.970 fps
Color space : YUV
Chroma subsampling : 4:2:0
Bit depth : 8 bits
Scan type : Progressive
Bits/(Pixel*Frame) : 0.179
Stream size : 633 MiB (91%)
Writing library : XviD 1.2.1 (UTC 2008-12-04)

Audio
ID : 1
Format : MPEG Audio
Format version : Version 1
Format profile : Layer 3
Mode : Joint stereo
Mode extension : MS Stereo
Codec ID : 55
Codec ID/Hint : MP3
Duration : 1h 6mn
Bit rate mode : Variable
Bit rate : 128 Kbps
Channel(s) : 2 channels
Sampling rate : 48.0 KHz
Stream size : 58.6 MiB (8%)
Alignment : Aligned on interleaves
Interleave, duration : 24 ms (0.72 video frame)
Interleave, preload duration : 149 ms
Writing library : LAME3.90.
Encoding settings : -m j -V 4 -q 2 -lowpass 17.6 --abr 128





------------------------------------------




One more file:


Format : Windows Media
File size : 593 MiB
Duration : 1h 15mn
Overall bit rate mode : Variable
Overall bit rate : 1 099 Kbps
Maximum Overall bit rate : 1 606 Kbps
Movie name :
Performer :
Encoded date : UTC 2006-07-19 00:45:22.953

Video
ID : 2
Format : VC-1
Format profile : MP@ML
Codec ID : WMV3
Codec ID/Info : Windows Media Video 9
Codec ID/Hint : WMV3
Description of the codec : Windows Media Video 9
Duration : 1h 15mn
Bit rate mode : Variable
Bit rate : 1 000 Kbps
Width : 720 pixels
Height : 480 pixels
Display aspect ratio : 3:2
Frame rate : 30.000 fps
Standard : NTSC
Bit depth : 8 bits
Scan type : Progressive
Bits/(Pixel*Frame) : 0.096
Stream size : 540 MiB (91%)
Language : English (US)

Audio
ID : 1
Format : WMA
Format version : Version 2
Codec ID : 161
Codec ID/Info : Windows Media Audio
Description of the codec : Windows Media Audio 9 - 96 kbps, 44 kHz, stereo 1-pass CBR
Duration : 1h 15mn
Bit rate mode : Constant
Bit rate : 96.0 Kbps
Channel(s) : 2 channels
Sampling rate : 44.1 KHz
Bit depth : 16 bits
Stream size : 51.8 MiB (9%)
Language : English (US)



-----------------------------------------





Format : AVI
Format/Info : Audio Video Interleave
File size : 700 MiB
Duration : 1h 31mn
Overall bit rate : 1 066 Kbps
Writing application : VirtualDubMod 1.5.4.1 (build 2178/release)
Writing library : VirtualDubMod build 2178/release

Video
ID : 0
Format : MPEG-4 Visual
Format profile : Advanced Simple@L5
Format settings, BVOP : Yes
Format settings, QPel : No
Format settings, GMC : No warppoints
Format settings, Matrix : Custom
Codec ID : XVID
Codec ID/Hint : XviD
Duration : 1h 31mn
Bit rate : 947 Kbps
Width : 448 pixels
Height : 288 pixels
Display aspect ratio : 1.556
Frame rate : 25.000 fps
Color space : YUV
Chroma subsampling : 4:2:0
Bit depth : 8 bits
Scan type : Progressive
Bits/(Pixel*Frame) : 0.294
Stream size : 622 MiB (89%)
Writing library : XviD 1.2.0.dev47 (UTC 2006-11-01)

Audio
ID : 1
Format : MPEG Audio
Format version : Version 1
Format profile : Layer 3
Mode : Joint stereo
Mode extension : MS Stereo
Codec ID : 55
Codec ID/Hint : MP3
Duration : 1h 31mn
Bit rate mode : Variable
Bit rate : 106 Kbps
Nominal bit rate : 128 Kbps
Channel(s) : 2 channels
Sampling rate : 48.0 KHz
Stream size : 69.6 MiB (10%)
Alignment : Aligned on interleaves
Interleave, duration : 24 ms (0.60 video frame)
Interleave, preload duration : 279 ms
Writing library : LAME3.97
Encoding settings : -m j -V 4 -q 2 -lowpass 17 --abr 128

Last edited by Rocho; 29th June 2010 at 02:50 PM.
Reply With Quote
  #23 (permalink)  
Old 29th June 2010
Moderator
BS.Player Master
 
Join Date: Jan 2003
Location: Romania
Age: 52
Posts: 5,162
Rep Power: 27
adicoto is on a distinguished road
Default

This is a total mixture of media files. They have nothing in common, so I believe the problem lies elswhere. I will get back.
Reply With Quote
  #24 (permalink)  
Old 3rd July 2010
Senior Member
BS.Player Power User
 
Join Date: Jan 2009
Posts: 129
Rep Power: 0
Rocho is an unknown quantity at this point
Default

Do have any new idea? I already have a new problem but that's probably with codec. I will open a new topic.
Reply With Quote
  #25 (permalink)  
Old 4th July 2010
Moderator
BS.Player Master
 
Join Date: Jan 2003
Location: Romania
Age: 52
Posts: 5,162
Rep Power: 27
adicoto is on a distinguished road
Default

Sorry, I was out for the weekend.
Reply With Quote
  #26 (permalink)  
Old 10th July 2010
Senior Member
BS.Player Power User
 
Join Date: Jan 2009
Posts: 129
Rep Power: 0
Rocho is an unknown quantity at this point
Default

A new weekend is coming again :(

This is very annoying. I never was so unsatisfied with BSplayer as now (i use it over 3 years).

When i create playlist and i want to go to a next video (or when video is finished) then it want to crash too.
Reply With Quote
  #27 (permalink)  
Old 15th July 2010
Senior Member
BS.Player Power User
 
Join Date: Jan 2009
Posts: 129
Rep Power: 0
Rocho is an unknown quantity at this point
Default

adicoto, why do you ignore me?
Reply With Quote
  #28 (permalink)  
Old 15th July 2010
Moderator
BS.Player Master
 
Join Date: Jan 2003
Location: Romania
Age: 52
Posts: 5,162
Rep Power: 27
adicoto is on a distinguished road
Default

I am not ignoring you. Just that I don't have for now a solution. The problems are too different to be caused by the same thing (unless it's BSPlayer itself).
Which version do we talk about ? 'cause playlist problem was solved some builds ago.
Reply With Quote
  #29 (permalink)  
Old 16th July 2010
Senior Member
BS.Player Power User
 
Join Date: Jan 2009
Posts: 129
Rep Power: 0
Rocho is an unknown quantity at this point
Default

It is 2.53 build 1034
Reply With Quote
  #30 (permalink)  
Old 16th July 2010
Moderator
BS.Player Master
 
Join Date: Jan 2003
Location: Romania
Age: 52
Posts: 5,162
Rep Power: 27
adicoto is on a distinguished road
Default

Can you upgrade to at least 1035 ?
Reply With Quote
  #31 (permalink)  
Old 16th August 2010
Senior Member
BS.Player Power User
 
Join Date: Jan 2009
Posts: 129
Rep Power: 0
Rocho is an unknown quantity at this point
Default

I was on holiday.

I thought i fixed the problem with 2.56.1043 verision but today had happen the same and old problem :(((
Reply With Quote
  #32 (permalink)  
Old 28th August 2010
Senior Member
BS.Player Power User
 
Join Date: Jan 2009
Posts: 129
Rep Power: 0
Rocho is an unknown quantity at this point
Default

Will we continue to work on this problem?
Reply With Quote
  #33 (permalink)  
Old 28th August 2010
Moderator
BS.Player Master
 
Join Date: Jan 2003
Location: Romania
Age: 52
Posts: 5,162
Rep Power: 27
adicoto is on a distinguished road
Default

As I stated above, those files have nothing in common. The problem lies elswhere. As you installed a newer version, my last ideea is that the problem cn be found in Direct Show. So, my last advice is to install a newer version of DirectX.
Prior to that, for the files listed above, can you post the filters used to decode the files ? Each filter for each of the files. Probably the single filter common to all files will be quartz.dll, the core of Direct Show (I hope).
Reply With Quote
  #34 (permalink)  
Old 4th September 2010
Senior Member
BS.Player Power User
 
Join Date: Jan 2009
Posts: 129
Rep Power: 0
Rocho is an unknown quantity at this point
Default

Sorry, but i foreget the names of those files. Only to wait for a new no response file where i will check again.

When i want to check filters do i have to go: Options > Filters > Andvanced ?

I downloaded this to update directx "DirectX End-User Runtime Web Installer" it is already updated. But i think i need it for DirectX 11 to update (mt gpu is 5770) do i need to download this? DirectX End-User Runtimes (February 2010) download from Guru3D.com
Reply With Quote
  #35 (permalink)  
Old 4th September 2010
Moderator
BS.Player Master
 
Join Date: Jan 2003
Location: Romania
Age: 52
Posts: 5,162
Rep Power: 27
adicoto is on a distinguished road
Default

Quote:
Originally Posted by Rocho View Post
Sorry, but i foreget the names of those files. Only to wait for a new no response file where i will check again.

When i want to check filters do i have to go: Options > Filters > Andvanced ?
Yes. After that we will look into directx
Reply With Quote
  #36 (permalink)  
Old 5th September 2010
Senior Member
BS.Player Power User
 
Join Date: Jan 2009
Posts: 129
Rep Power: 0
Rocho is an unknown quantity at this point
Default

This movie had 1 time problem when i tried to close BSplayer and i get no response window.

Format : AVI
Format/Info : Audio Video Interleave
File size : 702 MiB
Duration : 1h 47mn
Overall bit rate : 916 Kbps
Writing application : VirtualDubMod 1.5.10.1 (build 2366/release)
Writing library : VirtualDubMod build 2366/release

Video
ID : 0
Format : MPEG-4 Visual
Format profile : Advanced Simple@L5
Format settings, BVOP : Yes
Format settings, QPel : No
Format settings, GMC : No warppoints
Format settings, Matrix : Default (H.263)
Codec ID : DX50
Codec ID/Hint : DivX 5
Duration : 1h 47mn
Bit rate : 795 Kbps
Width : 608 pixels
Height : 332 pixels
Display aspect ratio : 16:9
Frame rate : 25.000 fps
Color space : YUV
Chroma subsampling : 4:2:0
Bit depth : 8 bits
Scan type : Progressive
Bits/(Pixel*Frame) : 0.157
Stream size : 609 MiB (87%)
Writing library : XviD 1.0.3 (UTC 2004-12-20)

Audio
ID : 1
Format : MPEG Audio
Format version : Version 1
Format profile : Layer 3
Codec ID : 55
Codec ID/Hint : MP3
Duration : 1h 47mn
Bit rate mode : Constant
Bit rate : 112 Kbps
Channel(s) : 2 channels
Sampling rate : 48.0 KHz
Stream size : 85.8 MiB (12%)
Alignment : Aligned on interleaves
Interleave, duration : 40 ms (1.00 video frame)
Interleave, preload duration : 504 ms



Is this what you looking for?



Now i started several time the same movie, jumped over the file then i closed and i didn't get problem again.
Reply With Quote
  #37 (permalink)  
Old 5th September 2010
Moderator
BS.Player Master
 
Join Date: Jan 2003
Location: Romania
Age: 52
Posts: 5,162
Rep Power: 27
adicoto is on a distinguished road
Default

Should be fine to see all the filters used.
WOW64 folder it's used in a Windows 64 bit environement to run 32 bit applications. If you are running 64 bit windows, should install 64bit ffdshow. It may be an incompatibility between. Not sure, but worth try.

http://www.freecodecs.net/fc/ffdshow...100902_x64.zip
Reply With Quote
  #38 (permalink)  
Old 6th September 2010
Senior Member
BS.Player Power User
 
Join Date: Jan 2009
Posts: 129
Rep Power: 0
Rocho is an unknown quantity at this point
Default

I wont get any problems bcz i use 32bit and now i have to install over it 64bit?






Reply With Quote
  #39 (permalink)  
Old 6th September 2010
Moderator
BS.Player Master
 
Join Date: Jan 2003
Location: Romania
Age: 52
Posts: 5,162
Rep Power: 27
adicoto is on a distinguished road
Default

1. You installed ffdshow from a codec pack. Not the best thing to do.
2. It's installed in x86 folder, so it's clear that is the 32 bit version.
3. Uninstallin it's not my best advice right now, as it comes from a codec pack. I've seen some messed up systems after uninstalling codec packs. But it may be the cause.
4. Post the "source " filter too.
Reply With Quote
  #40 (permalink)  
Old 6th September 2010
Senior Member
BS.Player Power User
 
Join Date: Jan 2009
Posts: 129
Rep Power: 0
Rocho is an unknown quantity at this point
Default

Here it is:

Reply With Quote
Reply

Tags
files, run

Thread Tools Search this Thread
Search this Thread:

Advanced Search
Display Modes

Posting Rules

Similar Threads
Thread Thread Starter Forum Replies Last Post
Problem playing some mpeg2 files with new nvidia decoders Jeraden Bug Reports And Codecs 1 13th October 2004 02:30 AM


All times are GMT +1. The time now is 01:04 PM.


Powered by vBulletin® Version 3.8.9
Copyright ©2000 - 2019, vBulletin Solutions, Inc.
Search Engine Optimization by vBSEO 3.6.0 PL2
Ad Management plugin by RedTyger

1 2 3 4 5 6 7 8 9 10 11 12 13 14 15 16 17 18 19 20