Official BS.Player forums  

Go Back   Official BS.Player forums > Main forum > General Talk And Support

General Talk And Support General talk and peer-to-peer support about BS.Player and other video and audio multimedia players.

Reply
 
LinkBack Thread Tools Search this Thread Display Modes
  #41 (permalink)  
Old 6th September 2010
Moderator
BS.Player Master
 
Join Date: Jan 2003
Location: Romania
Age: 52
Posts: 5,158
Rep Power: 27
adicoto is on a distinguished road
Default

OK, at tis moment I will try to uninstall just ffdshow from inside K-lite and install the 64 bit version (just ffdshow).
Reply With Quote
  #42 (permalink)  
Old 7th September 2010
Senior Member
BS.Player Power User
 
Join Date: Jan 2009
Posts: 129
Rep Power: 0
Rocho is an unknown quantity at this point
Default

This file had also crushed Bsplayer:

Format : AVI
Format/Info : Audio Video Interleave
File size : 349 MiB
Duration : 44mn 7s
Overall bit rate : 1 106 Kbps
Writing application : VirtualDubMod 1.5.10.2 (build 2540/release)
Writing library : VirtualDubMod build 2540/release

Video
ID : 0
Format : MPEG-4 Visual
Format profile : Advanced Simple@L5
Format settings, BVOP : Yes
Format settings, QPel : No
Format settings, GMC : No warppoints
Format settings, Matrix : Default (H.263)
Muxing mode : Packed bitstream
Codec ID : XVID
Codec ID/Hint : XviD
Duration : 44mn 7s
Bit rate : 968 Kbps
Width : 640 pixels
Height : 400 pixels
Display aspect ratio : 1.600
Frame rate : 25.000 fps
Color space : YUV
Chroma subsampling : 4:2:0
Bit depth : 8 bits
Scan type : Progressive
Bits/(Pixel*Frame) : 0.151
Stream size : 305 MiB (88%)
Writing library : XviD 1.2.1 (UTC 2008-12-04)

Audio
ID : 1
Format : MPEG Audio
Format version : Version 1
Format profile : Layer 3
Mode : Joint stereo
Mode extension : MS Stereo
Codec ID : 55
Codec ID/Hint : MP3
Duration : 44mn 7s
Bit rate mode : Constant
Bit rate : 128 Kbps
Channel(s) : 2 channels
Sampling rate : 48.0 KHz
Stream size : 40.4 MiB (12%)
Alignment : Aligned on interleaves
Interleave, duration : 40 ms (1.00 video frame)
Interleave, preload duration : 504 ms









Reply With Quote
  #43 (permalink)  
Old 7th September 2010
Moderator
BS.Player Master
 
Join Date: Jan 2003
Location: Romania
Age: 52
Posts: 5,158
Rep Power: 27
adicoto is on a distinguished road
Default

Same ffdshow as decoder.
Just to test. Blacklist ffdshow or disable MPEG4 support in ffdshow video configuration. 7's MPEG4 decoder should take it's place as favorite decoder. See if problem still persist.
Reply With Quote
  #44 (permalink)  
Old 9th September 2010
Senior Member
BS.Player Power User
 
Join Date: Jan 2009
Posts: 129
Rep Power: 0
Rocho is an unknown quantity at this point
Default

All these in yellow?




Or this?



One of these to choose what i will put on blacklist or disable it?
Reply With Quote
  #45 (permalink)  
Old 9th September 2010
Moderator
BS.Player Master
 
Join Date: Jan 2003
Location: Romania
Age: 52
Posts: 5,158
Rep Power: 27
adicoto is on a distinguished road
Default

Second image, XviD and DivX -> disable.
Reply With Quote
  #46 (permalink)  
Old 9th September 2010
Senior Member
BS.Player Power User
 
Join Date: Jan 2009
Posts: 129
Rep Power: 0
Rocho is an unknown quantity at this point
Default

Ok, i disabled Xvid and DivX 4/5/6. Now i am waiting...
Reply With Quote
  #47 (permalink)  
Old 9th September 2010
Moderator
BS.Player Master
 
Join Date: Jan 2003
Location: Romania
Age: 52
Posts: 5,158
Rep Power: 27
adicoto is on a distinguished road
Default

For ?
A file to crash ? Browse some files and play them
Reply With Quote
  #48 (permalink)  
Old 10th September 2010
Senior Member
BS.Player Power User
 
Join Date: Jan 2009
Posts: 129
Rep Power: 0
Rocho is an unknown quantity at this point
Default

It wasn't helped :(. Why only i get this problem :(
Reply With Quote
  #49 (permalink)  
Old 10th September 2010
Moderator
BS.Player Master
 
Join Date: Jan 2003
Location: Romania
Age: 52
Posts: 5,158
Rep Power: 27
adicoto is on a distinguished road
Default

Can you confirm that there is no longer ffdshow in the list of used filters ? Same screens as above ?
Reply With Quote
  #50 (permalink)  
Old 10th September 2010
Senior Member
BS.Player Power User
 
Join Date: Jan 2009
Posts: 129
Rep Power: 0
Rocho is an unknown quantity at this point
Default

here it is:

Reply With Quote
  #51 (permalink)  
Old 10th September 2010
Moderator
BS.Player Master
 
Join Date: Jan 2003
Location: Romania
Age: 52
Posts: 5,158
Rep Power: 27
adicoto is on a distinguished road
Default

No, I mean open such a file and post the filters used to decode the file. Like in the first screenshots with bsplayer's filter window.
Reply With Quote
  #52 (permalink)  
Old 11th September 2010
Senior Member
BS.Player Power User
 
Join Date: Jan 2009
Posts: 129
Rep Power: 0
Rocho is an unknown quantity at this point
Default

Can i post filters from other file? I deleted those files.
Reply With Quote
  #53 (permalink)  
Old 12th September 2010
Moderator
BS.Player Master
 
Join Date: Jan 2003
Location: Romania
Age: 52
Posts: 5,158
Rep Power: 27
adicoto is on a distinguished road
Default

As long as it's an MPEG4
Reply With Quote
  #54 (permalink)  
Old 13th September 2010
Senior Member
BS.Player Power User
 
Join Date: Jan 2009
Posts: 129
Rep Power: 0
Rocho is an unknown quantity at this point
Default

This file has been crushed when i tried to turn off Bsplayer.


Format : AVI
Format/Info : Audio Video Interleave
File size : 349 MiB
Duration : 44mn 9s
Overall bit rate : 1 104 Kbps
Writing application : VirtualDubMod 1.5.10.2 (build 2540/release)
Writing library : VirtualDubMod build 2540/release

Video
ID : 0
Format : MPEG-4 Visual
Format profile : Advanced Simple@L5
Format settings, BVOP : Yes
Format settings, QPel : No
Format settings, GMC : No warppoints
Format settings, Matrix : Default (H.263)
Muxing mode : Packed bitstream
Codec ID : XVID
Codec ID/Hint : XviD
Duration : 44mn 9s
Bit rate : 967 Kbps
Width : 640 pixels
Height : 416 pixels
Display aspect ratio : 3:2
Frame rate : 25.000 fps
Color space : YUV
Chroma subsampling : 4:2:0
Bit depth : 8 bits
Scan type : Progressive
Bits/(Pixel*Frame) : 0.145
Stream size : 305 MiB (88%)
Writing library : XviD 1.2.1 (UTC 2008-12-04)

Audio
ID : 1
Format : MPEG Audio
Format version : Version 1
Format profile : Layer 3
Mode : Joint stereo
Mode extension : MS Stereo
Codec ID : 55
Codec ID/Hint : MP3
Duration : 44mn 9s
Bit rate mode : Constant
Bit rate : 128 Kbps
Channel(s) : 2 channels
Sampling rate : 48.0 KHz
Stream size : 40.4 MiB (12%)
Alignment : Aligned on interleaves
Interleave, duration : 40 ms (1.00 video frame)
Interleave, preload duration : 504 ms









Reply With Quote
  #55 (permalink)  
Old 14th September 2010
Moderator
BS.Player Master
 
Join Date: Jan 2003
Location: Romania
Age: 52
Posts: 5,158
Rep Power: 27
adicoto is on a distinguished road
Default

Something is really wrong, as ffdshow still shows up. It's not disabled. Last measure, uninstall ffdshow.
Reply With Quote
  #56 (permalink)  
Old 14th September 2010
Senior Member
BS.Player Power User
 
Join Date: Jan 2009
Posts: 129
Rep Power: 0
Rocho is an unknown quantity at this point
Default

How to uninstall when it is in packet K-lite codec pack?
Reply With Quote
  #57 (permalink)  
Old 14th September 2010
Moderator
BS.Player Master
 
Join Date: Jan 2003
Location: Romania
Age: 52
Posts: 5,158
Rep Power: 27
adicoto is on a distinguished road
Default

If there is an uninstall shortcut in start menu under K-Lite, start it and see if you can uninstall just ffdshow.
Reply With Quote
  #58 (permalink)  
Old 14th September 2010
Senior Member
BS.Player Power User
 
Join Date: Jan 2009
Posts: 129
Rep Power: 0
Rocho is an unknown quantity at this point
Default

No, i can't. I can only uninstall complete.
Reply With Quote
  #59 (permalink)  
Old 15th September 2010
Moderator
BS.Player Master
 
Join Date: Jan 2003
Location: Romania
Age: 52
Posts: 5,158
Rep Power: 27
adicoto is on a distinguished road
Default

Do you recall if at install you have the option to uncheck the filters you don't want to install ? If so, uninstall K-lite and reinstall it but uncheck ffdshow.

LE: by any chance, did you install ffdshow from K-lite AND also through BSPlayer's codec manager ?
Reply With Quote
  #60 (permalink)  
Old 15th September 2010
Senior Member
BS.Player Power User
 
Join Date: Jan 2009
Posts: 129
Rep Power: 0
Rocho is an unknown quantity at this point
Default

1. I think i had it. I will uninstall/install again.

2. No, i did not.
Reply With Quote
Reply

Tags
files, run

Thread Tools Search this Thread
Search this Thread:

Advanced Search
Display Modes

Posting Rules

Similar Threads
Thread Thread Starter Forum Replies Last Post
Problem playing some mpeg2 files with new nvidia decoders Jeraden Bug Reports And Codecs 1 13th October 2004 01:30 AM


All times are GMT +1. The time now is 11:27 AM.


Powered by vBulletin® Version 3.8.9
Copyright ©2000 - 2019, vBulletin Solutions, Inc.
Search Engine Optimization by vBSEO 3.6.0 PL2
Ad Management plugin by RedTyger

1 2 3 4 5 6 7 8 9 10 11 12 13 14 15 16 17 18 19 20